Список форумов Слушаем.com Слушаем.com
Мы слушаем энигматик, нью эйдж, этническую, электронную музыку

Сайт | Фотоальбом форума | Чат | Группа ВКонтакте

 Правила форума   FAQFAQ   ПоискПоиск   ПользователиПользователи   ГруппыГруппы   РегистрацияРегистрация 
 ПрофильПрофиль   Войти и проверить личные сообщенияВойти и проверить личные сообщения   ВходВход 
Zero-Project

 
Начать новую тему   Ответить на тему    Список форумов Слушаем.com -> Музыка энигматик, нью эйдж, этническая, электронная.
Предыдущая тема :: Следующая тема  
Автор Сообщение
Quasar



Пол: Пол:Мужской
Возраст: 34
Зарегистрирован: 06.08.2003
Сообщения: 258
Откуда: г. Домодедово, Московская обл.

СообщениеДобавлено: Чт Май 01, 2014 17:33    Заголовок сообщения: Zero-Project Ответить с цитатой

Практически нет на форуме упоминания этого проекта Smile Многие скажут "баян" или ещё что-то в этом роде, но на эту музыку я чисто случайно наткнулся. Т.к. в последнее время я целенаправленно не слушаю ничего нового, всё гоняю старые добрые хиты до тех пор, пока не надоедает в конец... и потом делая паузу, снова слушаю старьё. Но эта музычка меня очень тронула! Из того, что послушал выкладываю ссылки на три любимые композиции, возможно, что кто-то откроет для себя что-то новое...

http://www.zero-project.gr/zero-project.html

http://www.youtube.com/watch?v=vYtazCoR4x0
http://www.youtube.com/watch?v=vjdYnNXge8I
http://www.youtube.com/watch?v=r2x0VpA3wJQ
Вернуться к началу
Посмотреть профиль Отправить личное сообщение

Merlin
Administrator


Пол: Пол:Мужской
Возраст: 42
Зарегистрирован: 20.02.2002
Сообщения: 1370
Откуда: Крым

СообщениеДобавлено: Пт Май 02, 2014 8:15    Заголовок сообщения: Ответить с цитатой

Достойная музыка, спасибо за ссылки. Появилось желание скачать и послушать полные альбомы.
_________________
People talk too much for what they have to say
Вернуться к началу
Посмотреть профиль Отправить личное сообщение Посетить сайт автора
AlexSl





Зарегистрирован: 03.04.2009
Сообщения: 16

СообщениеДобавлено: Пн Май 19, 2014 2:03    Заголовок сообщения: Ответить с цитатой

Спасибо за наводку, музыка просто отличная!

Часто последнее время начинаешь слушать что-то новое и выключаешь на втором треке, а тут альбомы целиком на одном дыхании!
Вернуться к началу
Посмотреть профиль Отправить личное сообщение
SubV



Пол: Пол:Мужской
Возраст: 43
Зарегистрирован: 19.10.2009
Сообщения: 134

СообщениеДобавлено: Сб Май 24, 2014 14:05    Заголовок сообщения: Ответить с цитатой

Спасибо.
Вернуться к началу
Посмотреть профиль Отправить личное сообщение
K2





Зарегистрирован: 10.08.2014
Сообщения: 7

СообщениеДобавлено: Вс Авг 10, 2014 20:29    Заголовок сообщения: Ответить с цитатой

Музыка чудесная! Проникающая, цепляет за душу...
Вернуться к началу
Посмотреть профиль Отправить личное сообщение
SubV



Пол: Пол:Мужской
Возраст: 43
Зарегистрирован: 19.10.2009
Сообщения: 134

СообщениеДобавлено: Вт Авг 12, 2014 21:50    Заголовок сообщения: Ответить с цитатой

Да. Очень хорошая музыка. Возможно, наиболее близкая к старым альбомам Delerium/Synaesthesia. И от Энигмы тут есть, и от других старых, добрых проектов. И в то же время чувствуется собственный стиль.

Автор - молодец.



https://yadi.sk/d/K5kgd8C1ZWZfD (MP3 VBR V0+)
Вернуться к началу
Посмотреть профиль Отправить личное сообщение
SubV



Пол: Пол:Мужской
Возраст: 43
Зарегистрирован: 19.10.2009
Сообщения: 134

СообщениеДобавлено: Вт Мар 31, 2015 19:38    Заголовок сообщения: Ответить с цитатой

Никос выпустил новый альбом. Толком еще не слушал, но по-моему, очень неплохо. И на Энигму похоже Smile

http://www.youtube.com/watch?v=eQB_aP84B68
Вернуться к началу
Посмотреть профиль Отправить личное сообщение
Merlin
Administrator


Пол: Пол:Мужской
Возраст: 42
Зарегистрирован: 20.02.2002
Сообщения: 1370
Откуда: Крым

СообщениеДобавлено: Чт Апр 02, 2015 15:28    Заголовок сообщения: Ответить с цитатой

SubV писал(а):
Никос выпустил новый альбом. Толком еще не слушал, но по-моему, очень неплохо. И на Энигму похоже Smile

http://www.youtube.com/watch?v=eQB_aP84B68


Трейлер впечатлил, буду качать альбом. Спасибо за наводку!

_________________
People talk too much for what they have to say
Вернуться к началу
Посмотреть профиль Отправить личное сообщение Посетить сайт автора
sklk
Гость







СообщениеДобавлено: Чт Апр 02, 2015 17:57    Заголовок сообщения: Ответить с цитатой

Альбом уже неделю на трекере лежит: http://new-team.org/viewtopic.php?t=51811 Very Happy
Вернуться к началу
SubV



Пол: Пол:Мужской
Возраст: 43
Зарегистрирован: 19.10.2009
Сообщения: 134

СообщениеДобавлено: Чт Апр 02, 2015 19:44    Заголовок сообщения: Ответить с цитатой

sklk писал(а):
Альбом уже неделю на трекере лежит

Спасибо.

Кроме всего прочего, творения Zero Project радуют качественным мастерингом. А то ведь как теперь часто бывает - вижу на трекере новый альбом (ambient, new age, relax, chillout, downtempo etc), скачиваю. И слышу... убитую динамику, плоский (зато громкий Smile ) звук. Недавно скачал такой вот "эмбиент" с DR=4.

Воспринимать подобный "чиллаут" как расслабляющую музыку мой мозг напрочь отказывается. Не могу понять, как человек, вложивший немало труда в написание альбома, соглашается изуродовать его на финальной стадии. Чтобы на динамике телефона громко звучало, что ли?

У Никоса с этим всё в порядке. Средний DR=8 по нынешним временам - это очень неплохо.

Код:
foobar2000 1.3.8 / Dynamic Range Meter 1.1.1
log date: 2015-04-02 18:26:30

--------------------------------------------------------------------------------
Analyzed: zero-project / Metamorphosis
--------------------------------------------------------------------------------

DR         Peak         RMS     Duration Track
--------------------------------------------------------------------------------
DR9       -0.20 dB   -12.36 dB      4:22 01-The Crossroads of Change
DR9       -0.20 dB   -11.09 dB      4:09 02-The Preparation
DR8       -0.20 dB   -10.60 dB      5:32 03-Path to Innocence
DR9       -0.20 dB   -11.21 dB      2:27 04-The Light of Truth
DR8       -0.20 dB    -9.29 dB      7:56 05-Metamorphosis
DR7       -0.20 dB   -10.80 dB      6:17 06-The Call of the Desert
DR8       -0.20 dB   -10.08 dB      5:50 07-Eastern Illusion
DR8       -0.20 dB    -9.41 dB      2:29 08-Desert Queen
DR7       -0.20 dB    -9.03 dB      2:41 09-Behind the Veil
DR8       -0.20 dB   -10.03 dB      5:56 10-Oasis
DR7       -0.20 dB    -9.75 dB      4:24 11-The Passage
DR9       -0.20 dB   -11.90 dB      4:12 12-Deep in the Ancient Forest
--------------------------------------------------------------------------------

Number of tracks:  12
Official DR value: DR8

Samplerate:        44100 Hz
Channels:          2
Bits per sample:   16
Bitrate:           778 kbps
Codec:             FLAC
================================================================================



P.S. Некоторые альбомы Delerium тоже не мешало бы пересвести.
Вернуться к началу
Посмотреть профиль Отправить личное сообщение
SubV



Пол: Пол:Мужской
Возраст: 43
Зарегистрирован: 19.10.2009
Сообщения: 134

СообщениеДобавлено: Вс Июл 12, 2015 2:15    Заголовок сообщения: Ответить с цитатой

Свежий трек.

zero-project & Ionas feat. Dia - Higher
Вернуться к началу
Посмотреть профиль Отправить личное сообщение
Показать сообщения:   
Начать новую тему   Ответить на тему    Список форумов Слушаем.com -> Музыка энигматик, нью эйдж, этническая, электронная. Часовой пояс: GMT + 4
Страница 1 из 1

 
Перейти:  
Вы не можете начинать темы
Вы не можете отвечать на сообщения
Вы не можете редактировать свои сообщения
Вы не можете удалять свои сообщения
Вы не можете голосовать в опросах
Вы можете добавлять вложения в этом форуме
Вы можете просматривать вложения в этом форуме



Rambler's Top100 Рейтинг SunHome.ru
Powered by phpBB © 2001, 2005 phpBB Group